Crea sito
Bloggando vi consiglia:
Avatar of gratis

by

Phantom of the Opera (1943) – Il Fantasma Dell Opera – Bonus 57 m. [XviD – Italian English Ac3 – Seed (23)/Leech (47)

28 giugno 2013 in Streaming torrentz

Share:
Share

Phantom of the Opera (1943) – Il Fantasma Dell’Opera –  + Bonus 57 m. [XviD - Italian English Ac3 - Sub Ita Eng] MIRCrew [TNT Village]

*********************************************

INCLUSO 57 MINUTI DI INSERTI SPECIALI INTERVISTE E BACKGROUND IN ENG

 

Titolo originale Phantom of the Opera

Paese di produzione Stati Uniti

Anno 1943

Durata 92 min

Genere drammatico, thriller, horror, musicale

Regia Arthur Lubin

Soggetto Gaston Leroux

Sceneggiatura John Jacoby

Fotografia W. Howard Greene, Hal Mohr

Montaggio Russell F. Schoengarth

Musiche Edward Ward

Scenografia Russell A. Gausman, Ira S. Webb

***********************************************

Premi:

1944 – Premio Oscar

       Migliore fotografia a Hal Mohr e W. Howard Greene

       Migliore scenografia a Alexander Golitzen, John B. Goodman, Russell A. Gausman e Ira Webb

       Nomination Miglior sonoro a Bernard B. Brown

       Nomination Miglior colonna sonora a Edward Ward

   Nelson Eddy: Anatole Garron

   Susanna Foster: Christine Dubois

   Claude Rains: Erique Claudin, il Fantasma

   Edgar Barrier: Raoul D’Aubert

   Frank Puglia: Villeneuve

   Fritz Leiber: Franz Liszt

 

 

Durante una rappresentazione della Martha di Friedrich von Flotow al Teatro dell’Opera di Parigi, il direttore d’orchestra Villeneuve nota alcune discordanze tra gli archi e ne individua la

causa nel primo violino, Erique Claudin.

Terminato lo spettacolo Claudin viene convocato nell’ufficio del maestro, che gli chiede di suonare. Claudin improvvisa una vecchia ninna-nanna della Provenza, sua terra natale, eseguendola

in modo perfetto. Ma alla richiesta di accennare all’entrata dei violini nel terzo atto della Marta, il violinista rifiuta, affermando di non riuscire più ad utilizzare al meglio la mano

sinistra. Villeneuve, pur molto dispiaciuto è costretto a licenziarlo dall’orchestra dell’Opera…………….

Pit violinist Claudin hopelessly loves rising operatic soprano Christine Dubois (as do baritone Anatole and police inspector Raoul) and secretly aids her career. But Claudin loses both his

touch and his job, murders a rascally music publisher in a fit of madness, and has his face etched with acid. Soon, mysterious crimes plague the Paris Opera House, blamed on a legendary

“phantom” whom none can find in the mazes and catacombs. But both of Christine’s lovers have plans to ferret him out.

General

Complete name                    : Il Fantasma Dell’Opera (1943).Ita.Eng.Sub.Ita.Eng.MIRCrew + Bonus\Il Fantasma Dell’Opera (1943).Ita.Eng.Sub.Ita.Eng.MIRCrew.avi

Format                           : AVI

Format/Info                      : Audio Video Interleave

File size                        : 1.46 GiB

Duration                         : 1h 28mn

Overall bit rate                 : 2 357 Kbps

Writing application              : VirtualDubMod 1.5.4.1 (build 2178/release)

Writing library                  : VirtualDubMod build 2178/release

Video

ID                               : 0

Format                           : MPEG-4 Visual

Format profile                   : Advanced Simple@L5

Format settings, BVOP            : No

Format settings, QPel            : No

Format settings, GMC             : No warppoints

Format settings, Matrix          : Custom

Codec ID                         : XVID

Codec ID/Hint                    : XviD

Duration                         : 1h 28mn

Bit rate                         : 1 964 Kbps

Width                            : 720 pixels

Height                           : 544 pixels

Display aspect ratio             : 4:3

Frame rate                       : 25.000 fps

Color space                      : YUV

Chroma subsampling               : 4:2:0

Bit depth                        : 8 bits

Scan type                        : Progressive

Bits/(Pixel*Frame)               : 0.201

Stream size                      : 1.22 GiB (83%)

Writing library                  : XviD 1.2.1 (UTC 2008-12-04)

Audio #1

ID                               : 1

Format                           : AC-3

Format/Info                      : Audio Coding 3

Mode extension                   : CM (complete main)

Codec ID                         : 2000

Duration                         : 1h 28mn

Bit rate mode                    : Constant

Bit rate                         : 192 Kbps

Channel(s)                       : 2 channels

Channel positions                : Front: L R

Sampling rate                    : 48.0 KHz

Bit depth                        : 16 bits

Stream size                      : 122 MiB (8%)

Alignment                        : Aligned on interleaves

Interleave, duration             : 96 ms (2.40 video frames)

Interleave, preload duration     : 96 ms

Language                         : Italian

Audio #2

ID                               : 2

Format                           : AC-3

Format/Info                      : Audio Coding 3

Mode extension                   : CM (complete main)

Codec ID                         : 2000

Duration                         : 1h 28mn

Bit rate mode                    : Constant

Bit rate                         : 192 Kbps

Channel(s)                       : 2 channels

Channel positions                : Front: L R

Sampling rate                    : 48.0 KHz

Bit depth                        : 16 bits

Stream size                      : 122 MiB (8%)

Alignment                        : Aligned on interleaves

Interleave, duration             : 96 ms (2.40 video frames)

Interleave, preload duration     : 96 ms

Language                         : English

Source ilcorsaronero.info/

Leave a reply

L'indirizzo email non verrà pubblicato. I campi obbligatori sono contrassegnati *


*

È possibile utilizzare questi tag ed attributi XHTML: <a href="" title=""> <abbr title=""> <acronym title=""> <b> <blockquote cite=""> <cite> <code> <del datetime=""> <em> <i> <q cite=""> <strike> <strong>